#TITLE:No Way;
#SUBTITLE:;
#ARTIST:G-Zone;
#TITLETRANSLIT:No Way;
#SUBTITLETRANSLIT:;
#ARTISTTRANSLIT:G-Zone;
#CREDIT:Thu Bay , 31-1-2009;
#BANNER:No Way-bn.png;
#BACKGROUND:No Way-bg.png;
#LYRICSPATH:;
#CDTITLE:pm4cd.png;
#MUSIC:No Way.mp3;
#OFFSET:-0.580;
#SAMPLESTART:68.160;
#SAMPLELENGTH:20.000;
#SELECTABLE:YES;
#BPMS:0.000=146.010;
#STOPS:;
#BGCHANGES:;
// cache tags:
#FIRSTBEAT:0.000;
#LASTBEAT:537.000;
#SONGFILENAME:Songs/Music V.I.P ^_^/No Way/No Way.sm;
#HASMUSIC:1;
#HASBANNER:1;
#MUSICLENGTH:224.640;
// end cache tags

//---------------dance-single - ----------------
#NOTES:
     dance-single:
     :
     Hard:
     22:
     1.000,1.000,1.000,0.227,0.824,1342.000,230.000,51.000,0.000,40.000:
0010
0001
1000
0100
0020
0000
0000
0130
0000
0000
1000
0000
0000
0000
0001
0000
,
0100
0000
0010
0000
2000
0000
0000
3001
0000
0000
0100
0000
0000
0000
0001
0000
,
0100
0000
0010
0000
0200
0000
0000
0301
0000
0000
0010
0000
0000
0000
1000
0000
,
0001
0000
0010
0000
0200
0000
0000
1300
0000
0000
0010
0000
0100
1000
0100
0000
,
0010
0000
1000
0010
2102
0000
0000
0000
0103
0000
0001
0000
0010
0000
0001
0000
,
0010
0001
3220
0000
0301
0001
0100
0001
,
0100
1000
2032
0000
0103
0010
0100
0010
,
0001
0010
3202
0000
0000
0000
0000
0000
,
0000
0000
0000
0000
0000
0300
0010
0000
0010
0000
0010
0000
0010
0010
0010
0010
,
0010
0010
0010
0010
1003
0100
0010
0000
0001
0000
0010
0000
1000
0000
0001
0000
,
0010
0000
1000
0000
0001
0100
0010
0000
0001
0000
0100
0000
1000
0000
0100
0000
,
0001
0000
0010
0000
0001
1000
0100
0000
0010
0000
1000
0000
0010
0000
0100
0000
,
1000
0000
0001
0000
0010
0100
1000
0000
0001
0000
0100
0000
0010
0000
1000
0000
,
0100
0000
0001
0000
1000
0010
0001
0000
0100
0000
1000
0000
0010
0000
1000
0000
,
0100
0000
0010
0000
0001
1000
0100
0000
0001
0000
0010
0000
0100
0000
0010
0000
,
1000
0000
0100
0000
0001
0100
1000
0000
0010
0000
1000
0000
0010
0000
0100
0000
,
1000
0000
0100
0000
1000
0010
0000
0100
0000
0000
0010
0001
0100
0000
1000
1000
,
1000
1000
1000
1000
0011
0000
0100
0000
1100
0000
0010
0000
0101
0000
0011
0000
,
1000
0110
0010
1100
0100
1010
0100
0110
,
1000
0100
0011
0000
1010
0000
0100
0000
0011
0000
0100
0000
0011
0000
1100
0000
,
0010
0000
1100
0000
0100
1000
0100
0010
0001
0010
0100
0010
0001
0010
0100
1000
,
0100
1000
0100
0010
1010
0000
0001
0000
0110
0000
0010
0000
1100
0000
1010
0000
,
0100
0011
0001
1010
0100
1100
0010
0110
,
0001
0010
1100
0000
0101
0000
0010
0000
1010
0000
0001
0000
1100
0000
0011
0000
,
0010
0000
1100
0000
1010
0000
0100
0010
0001
0000
1010
0000
0100
0100
0100
0100
,
0100
0100
0100
0100
0012
0000
1000
0000
0013
0000
0100
0000
1000
0000
0010
0000
,
0001
0010
1100
0010
0100
0010
1000
0001
,
0100
0010
1001
0100
0010
0001
0010
0001
,
0010
0000
1000
0000
0101
0000
0010
0000
0100
0000
1000
0000
0010
0100
0010
0000
,
0100
0000
0001
0001
2100
0000
0010
0000
3010
0000
0100
0000
1000
0000
0100
0000
,
0001
0010
0101
1000
0001
0100
1000
0001
,
0100
0010
1100
0001
0100
1000
0010
0100
,
0001
0000
1000
0000
0121
0000
2000
0000
0130
0000
0010
0000
0001
0001
0001
0000
,
0100
0000
0100
0100
3021
0000
0100
0000
0130
0000
0001
0000
0010
0000
0001
0000
,
0100
0000
0010
0000
1010
0000
0100
0010
0001
0000
0010
0000
0001
0000
1000
0000
,
0100
0010
0101
0010
1000
0001
0100
0010
,
0001
0000
1000
0000
0110
0000
0001
0010
0100
0000
0001
0000
1000
0000
0100
0000
,
0001
0100
2010
0010
3001
0010
1000
0100
,
0001
0010
0101
0010
1100
0001
0010
1000
,
0100
0010
1002
0100
0010
0100
1000
0100
,
0010
0100
1203
0000
0000
0000
0000
0000
,
0000
0000
0302
0000
0013
0000
1001
0010
,
0100
1000
0011
0100
0001
0010
1001
0100
,
0010
1000
0101
1000
0010
0000
0101
0010
,
1000
0000
0110
0001
0100
0000
1010
0001
,
0100
0010
2001
0100
0010
0000
3101
0010
,
0001
0100
1010
0001
0100
0000
0011
0000
,
1000
0101
0010
1001
,
0100
0000
0000
0000
0100
0010
0100
0010
0100
0010
0100
0010
1000
0001
1000
0001
,
1000
0001
1000
0001
0120
0001
0100
1000
0100
0001
0100
1000
0130
0010
0001
0010
,
0100
1000
0100
0010
0001
0010
0100
1000
0100
0010
0001
0010
0100
1000
0100
0010
,
0001
0010
0100
1000
0100
0010
0001
0010
0100
1000
0100
0010
0001
0010
0100
1000
,
0100
0010
0001
0010
0100
1000
0100
0010
0001
0010
0100
1000
0100
0010
0001
0010
,
0100
1000
0100
0010
0210
0001
0010
1000
0010
0001
0010
1000
0310
0001
0010
0100
,
1000
0100
0010
0001
0010
0100
1000
0100
0010
0001
0010
0100
1000
0100
0010
0001
,
0010
0100
1000
0100
0010
0001
0010
0100
1000
0100
0010
0001
0010
0100
1000
0100
,
0010
0001
0010
0100
1002
0100
0010
0100
1000
0100
0010
0100
1000
0100
0010
0100
,
1000
0100
0010
0100
1013
0000
0000
0000
0100
0000
0000
0000
0011
0000
0000
0000
,
1000
0101
0010
1001
,
0010
0110
1000
0101
,
0010
0000
0000
0000
1001
0010
0001
0010
0001
0010
0100
1000
0100
0010
0001
0010
,
0001
0010
0100
1000
0110
0000
1000
0000
0001
0000
0010
0000
1000
0000
0100
0000
,
0010
0000
0001
0000
1000
0100
0010
0000
1000
0000
0010
0000
0100
0000
1000
0000
,
0100
0000
0010
0000
1000
0001
0010
0000
0100
0000
0001
0000
1000
0000
0010
0000
,
0100
0000
0001
0000
0100
0010
1000
0000
0100
0000
0010
0000
0001
0000
0100
0000
,
1000
0000
0010
0000
1000
0100
0001
0000
0010
0000
0100
0000
1000
0000
0001
0000
,
0100
0000
1000
0000
0010
1000
0001
0000
0100
0000
0001
0000
1000
0000
0100
0000
,
0001
0000
0010
0000
0001
1000
0100
0000
0001
0000
0100
0000
0001
0000
1000
0000
,
0010
0000
1000
0000
0100
0001
0000
0010
0000
0000
0100
0010
0001
0000
0001
0001
,
0001
0001
0001
0001
1010
0000
0100
0000
1100
0000
0001
0000
0110
0000
1001
0000
,
0010
1100
0010
0101
0010
0011
1000
0110
,
0001
0010
1100
0000
0011
0000
0100
0000
1010
0000
0100
0000
0101
0000
1010
0000
,
0100
0000
0011
0000
1000
0100
0010
0001
0010
0100
0010
0001
0010
0100
0010
0100
,
1000
0100
0010
0001
0101
0000
0010
0000
1001
0000
0100
0000
0011
0000
0110
0000
,
1000
0101
0010
1001
0100
0011
0001
0101
,
1000
0100
0011
0000
1010
0000
0100
0000
1001
0000
0010
0000
1001
0000
0110
0000
,
0001
0000
1010
0000
0101
0000
0010
0100
1000
0000
0011
0000
0010
0010
0010
0010
,
0010
0010
0010
0010
0201
0000
0010
0000
1300
0000
0010
0000
1100
0000
0001
0000
,
1000
0100
1001
0010
0100
1000
0110
0001
,
0100
1000
0101
0010
1000
0100
0011
0010
,
0100
0000
0010
0000
1001
0000
0100
0000
0010
0000
1000
0000
0001
0010
0001
0000
,
1000
0100
0012
1000
1003
0010
0110
1000
,
0100
0010
0101
0010
1000
0001
1010
0100
,
0001
1000
0110
1000
0001
0010
1100
0010
,
0001
0000
0010
0000
2101
0000
0020
0000
3100
0000
1000
0000
0100
0100
0100
0000
,
0001
0000
1000
1000
0131
0000
0010
0000
1000
0000
0001
0000
0110
0000
0001
0000
,
0100
0000
0010
0000
1010
0000
1000
0100
0010
0000
0100
0000
1100
0000
0010
0000
,
0001
0100
1001
0100
1000
0010
0110
1000
,
0100
0000
0010
0000
1100
0000
0010
0100
1000
0000
0010
0000
0101
0000
1000
0000
,
0010
0001
1200
1000
0311
0001
1001
0100
,
0011
0010
0101
0010
1100
0001
0110
1000
,
0101
0010
1002
0100
1010
0100
1100
0100
,
0110
0100
1203
0000
0000
0000
0000
0000
,
0000
0000
0000
0000
1302
0010
0100
1000
0013
0001
0100
0010
0001
0100
0010
0001
,
0100
0010
1000
0100
0001
1000
0100
0010
0001
0100
0010
0100
1001
0010
0100
0001
,
0010
0100
1000
0010
0001
0010
1000
0001
0010
1000
0100
1000
0001
1000
0010
0100
,
1000
0100
0010
0001
0010
1000
0001
0010
0100
1000
0001
0100
0010
0100
0001
0010
,
0100
1000
0010
0100
2001
0010
0100
0001
0010
0100
0010
0001
3100
0001
0010
1000
,
0001
0010
0100
0001
1020
0100
0001
1000
0100
1000
0001
0100
0031
1000
0100
0010
,
1000
0100
0010
1000
0201
0010
0001
1000
0010
0001
1000
0010
1300
0001
0010
1000
,
0100
0001
0010
0001
1100
0010
0101
0010
1100
0010
0101
0010
1100
0001
1010
0001
,
1100
0001
1010
0001
0120
0001
0100
1000
0100
0001
0100
1000
0130
0010
0001
0010
,
0100
1000
0100
0010
0001
0010
0100
1000
0100
0010
0001
0010
0100
1000
0100
0010
,
0001
0010
0100
1000
0100
0010
0001
0010
0100
1000
0100
0010
0001
0010
0100
1000
,
0100
0010
0001
0010
0100
1000
0100
0010
0001
0010
0100
1000
0100
0010
0001
0010
,
0100
1000
0100
0010
0210
0001
0010
1000
0010
0001
0010
1000
0310
0001
0010
0100
,
1000
0100
0010
0001
0010
0100
1000
0100
0010
0001
0010
0100
1000
0100
0010
0001
,
0010
0100
1000
0100
0010
0001
0010
0100
1000
0100
0010
0001
0010
0100
1000
0100
,
0010
0001
0010
0100
1002
0100
0010
0100
1000
0100
0010
0100
1000
0100
0010
0100
,
1000
0100
0010
0100
1013
0000
0000
0000
0000
0000
0010
0000
0000
0000
0001
0000
,
1000
0100
0010
0000
0100
0001
0000
0000
,
0010
0001
1000
0000
0000
0100
0000
0001
,
0010
0100
1000
0000
0100
0001
0000
0000
,
0010
1000
0201
0000
0300
1000
0002
0100
,
0013
1000
0200
0000
0310
1000
0000
0010
,
0000
0000
0000
0000
1201
0000
0001
0000
1301
0000
0001
0000
1102
0100
0100
0100
,
1103
0100
0100
0100
2010
0001
0010
0100
3010
0001
0010
0100
1000
0100
0010
0001
,
0010
0100
1000
0010
2001
0000
0000
0000
3101
0000
0000
0000
1010
0000
0001
0000
,
1100
0010
0100
0001
1100
0010
0101
1000
,
0011
0000
0101
1000
0110
0000
0101
1000
,
0011
0100
1001
0010
0101
0010
1100
0010
,
1001
0100
2010
0001
0011
0000
3101
0010
,
1100
0001
0110
1000
0011
0000
0101
0000
,
1010
0101
0110
1001
,
0011
0000
0000
0000
0101
0010
1100
0010
0101
1000
0101
1000
0101
0010
0101
1000
,
0101
0010
0101
0010
2101
0010
0001
0010
0101
0010
0001
0010
3101
0010
0100
1000
,
0101
0010
0001
0100
1000
0010
0101
0010
0100
1000
0101
0010
0100
0010
0101
1000
,
0100
0010
0101
0010
0101
1000
0100
0010
0101
0010
0001
0010
0101
1000
0100
0010
,
0101
0010
0100
1000
0101
0010
0001
0010
0101
1000
0010
0100
0011
0100
1000
0100
,
0011
0100
1000
0001
2110
0001
0010
0100
0011
0100
0001
0010
3101
0010
0001
0010
,
0101
1000
0100
0010
0101
0010
0100
1000
0101
0010
0001
0010
0101
1000
0100
0010
,
0101
0010
0100
1000
0101
0010
0001
0010
0101
1000
0100
0010
0101
1000
0100
0010
,
0101
1000
0100
0010
2101
0010
0001
0100
0001
0100
0010
0100
0011
0100
0010
0001
,
0110
0001
0010
0100
3021
0000
0000
0000
0000
0000
0000
0000
0000
0000
0000
0000
,
0000
0030
0000
0000
;
